数码兽大冒险tri. 第4章「丧失」

datri4_poster_v1

说明

2017年2月25日先行版说明
爆肝完成,由于时间关系可能不太完美。
1.接下来一段时间我们会进行字幕完善,如有错误还请及时指出。
2.字幕类型为简体中文(内嵌字幕)。

作品介绍

TITILE

デジモンアドベンチャー tri. 第4章「喪失」

作品名 上映日期 时长
数码兽大冒险tri. 第1章「再会」 2015年11月21日 89分钟
数码兽大冒险tri. 第2章「决意」 2016年3月12日 88分钟
数码兽大冒险tri. 第3章「告白」 2016年9月24日 106分钟
数码兽大冒险tri. 第4章「丧失」 2017年2月25日 82分钟
数码兽大冒险tri. 第5章「共生」 2017年9月30日 89分钟
数码兽大冒险tri. 第6章「我们的未来」 2018年5月5日 99分钟

CAST

八神太一花江夏树
亚古兽坂本千夏
武之内空三森铃子
比丘兽重松花鸟
石田大和细谷佳正
加布兽山口真弓
泉光子郎田村睦心
甲虫兽樱井孝宏
太刀川美美吉田仁美
巴鲁兽山田茸
城户丈池田纯矢
哥玛兽竹内顺子
高石岳榎木淳弥
巴达兽松本美和
八神光M・A・O
迪路兽徳光由禾
望月芽心荒川美穗
缅因猫兽森下由树子
西岛大吾浪川大辅
姬川真希甲斐田裕子
食梦兽石原夏织
哈克兽武内骏辅

STAFF

制作高木胜裕
企划森下孝三
原案本乡昭由
监督元永庆太郎
系列构成柿原优子
角色设计宇木敦哉
动画角色设计筱雅律
总作画监督渡边浩二
道具设计岩畑刚一  铃木典孝
色彩设计漆户幸子
美术监督长冈慎治
摄影监督难波史
剪辑樱井崇
音乐坂部刚
音响监督虾名恭范
音乐制作人松井伸太郎
总制片人铃木笃志  东伊里弥
制片人新井修平  村上真喜子
西田彻   本川耕平
井上贵博
执行制片人北崎广实
动画制片人樱井崇
动画制作协力台风Graphics
配给东映动画
东映
企划・制作东映动画

STORY

  缅因猫兽发生暴走,然后在这种情况下进行了重置。缅因猫兽的离开让芽心异常苦恼,太一他们则留下芽心再次来到了数码世界。在这里,他们和数码兽们重聚,但数码兽们已经失去了记忆。尽管如此,他们试图再次建立联系,太一他们向数码兽们伸出了友谊的双手,数码兽们也回应着。但是只有比丘兽进化到了成长期,而在成长期时却显露出了警惕心。武之内空向来是关心别人多于自己,比丘兽此时对她却产生了不信任感。受伤的空停下脚步,太一和大和都不知如何安慰她。
  数码世界今后该怎么办呢?由此,大家进行了协商。这时,突然出现了缅因猫兽的身影,随后又消失了。它为什么会留着原来的记忆,一边流泪,一边寻找芽心。看着缅因猫兽的身影,大家坚定了要环游数码世界,拯救它的决心。但是,那个带走缅因猫兽的黑暗家伙又出现了。
  就在此时,现实世界的西岛收到了姬川失踪的报道。他调查了姬川到现在为止所有行为,确认了她背后还隐瞒了某个目的。而这是连接着决定两人命运的过去所发生的事情……
  现在,冒险再一次进化——

转载说明

本资源允许转载,但请注明出处和制作组。
EMTP-Raws 数码宝贝吧 驯兽师联盟

下载地址

2017年2月25日先行版(720P简体中文内嵌字幕x264)
动漫花园 ACG.RIP 萌番组

百度网盘

STAFF

片源    HorribleSubs
翻译    翼尔      Re
歌词翻译  野龙      风彻
校对    翼尔      Re
      金皮卡
时间轴   东东      Geemon
后期    扇子      Geemon
制作监督  みなもと楓   金皮卡
字幕    驯兽师联盟
制作    EMTP-Raws
      数码宝贝吧
      驯兽师联盟

预览图

datri4-1

datri4-2

datri4-3

datri4-4

datri4-5

datri4-6

datri4-7

Mediainfo

Video
ID : 1
Format : AVC
Format/Info : Advanced Video Codec
Format profile : High@L3.1
Format settings, CABAC : Yes
Format settings, ReFrames : 4 frames
Codec ID : avc1
Codec ID/Info : Advanced Video Coding
Duration : 1h 18mn
Bit rate : 1 076 Kbps
Maximum bit rate : 9 604 Kbps
Width : 1 280 pixels
Height : 720 pixels
Display aspect ratio : 16:9
Frame rate mode : Constant
Frame rate : 23.976 fps
Color space : YUV
Chroma subsampling : 4:2:0
Bit depth : 8 bits
Scan type : Progressive
Bits/(Pixel*Frame) : 0.049
Stream size : 604 MiB (77%)
Writing library : x264 core 148 r2638 7599210
Encoding settings : cabac=1 / ref=3 / deblock=1:0:0 / analyse=0x3:0x113 / me=hex / subme=7 / psy=1 / psy_rd=1.00:0.00 / mixed_ref=1 / me_range=16 / chroma_me=1 / trellis=1 / 8x8dct=1 / cqm=0 / deadzone=21,11 / fast_pskip=1 / chroma_qp_offset=-2 / threads=6 / lookahead_threads=1 / sliced_threads=0 / nr=0 / decimate=1 / interlaced=0 / bluray_compat=0 / constrained_intra=0 / bframes=3 / b_pyramid=2 / b_adapt=1 / b_bias=0 / direct=1 / weightb=1 / open_gop=0 / weightp=2 / keyint=240 / keyint_min=23 / scenecut=40 / intra_refresh=0 / rc_lookahead=40 / rc=crf / mbtree=1 / crf=23.0 / qcomp=0.60 / qpmin=0 / qpmax=69 / qpstep=4 / ip_ratio=1.40 / aq=1:1.00
Encoded date : UTC 2017-02-25 08:38:24
Tagged date : UTC 2017-02-25 08:44:30

Audio
ID : 2
Format : AAC
Format/Info : Advanced Audio Codec
Format profile : LC
Codec ID : 40
Duration : 1h 18mn
Bit rate mode : Variable
Bit rate : 321 Kbps
Maximum bit rate : 434 Kbps
Channel(s) : 2 channels
Channel positions : Front: L R

Sampling rate : 44.1 KHz
Compression mode : Lossy
Stream size : 180 MiB (23%)
Encoded date : UTC 2017-02-25 08:41:31
Tagged date : UTC 2017-02-25 08:44:30

数码兽大冒险tri. 第4章「丧失」

最后修订于 2018年08月05日

评论


    1. 回复 @willionyew: 我已经说得很清楚了,在第6章前,别再催了。放其他站你早就被拉黑了{e#p喝酒}。我们站已经是最包容的了,很多字幕组和压制组还有因为催番直接停工将该作拉入黑名单的

      回复
  1. 爱好者

    想问一下,有没有想过制作的时候字幕可以呈现不显示状态?这样有时候截图的时候会方便

    回复
    1. 爱好者

      回复 @Hanada: 好吧,我的错,可能因为我下载的是第1章720p的Final版的缘故吧(1080p的容量在下实在有些承受不起)

      回复
    1. Hanada

      回复 @Willionyew: 对的呢{e#p暗中观察},其实sadouxi透露说2-5章都压好了{e#p托腮},我们的第5章字幕还需要点时间弄,所以可能还要拖延一阵,因为年底大家学业繁忙

      回复
    1. Hanada

      回复 @Willionyew: 我指的就是第4章和第5章,这两章计划连同第2-3章的V2版一起发布,所以总体情况是,第1-3章会发布Final_V2版,第4-5Final版(未来的第6章的Final版不出意外也是)直接发Final版,这5个会按照一样的方式编码。

      回复
    1. Hanada

      回复 @he456: From sadouxi(EMTP-Raws)
      @丽丽-风暴烈酒(微博)
      #EMTP-Raws&BaiduBBB&TamersUnion#
      由于找到了8bit > 16bit > 10bit > 12bit的处理方法,外加修正之前字幕可能存在的一些错误,现决定将DA Tri.的1080P_MKV全部重新制作。
      你们可以删掉手头上的资源了。 ​​​​
      So 时间估计还要继续往后了,可能会和第5章一起发{e#p不高兴}

      回复
    2. Trickster

      回复 @Hanada: 你好,你这个回复的意思应该是后面会出全六章的8bit资源吗?最近弄到一款安卓盒子,可以硬解播放10bit的视频,但是12bit就不行了,装上MXPLAYER用软解播放很卡,估计是配置不够的锅。8bit的视频应该不会太吃配置吧,期待上线的那天。

      回复
    3. Trickster

      回复 @Hanada: 8bit应该会有1080P版的吧?我这个盒子可以支持4k原盘但是就是无法流畅播放12bit的视频,也有可能可以换个播放器解决,你有没有推荐的?

      回复
    4. Trickster

      回复 @Hanada: 我是以前看过你这个回复才以为以后会出8bit的1080p,所以过来问下的,那么请问后面的1080p还是12bit的吗?

      回复
  2. 四了个夕

    感谢字幕组的付出=w=(比心)
    我能说点建议咩:如果可以的话,统一一下海报咯,或者把官方的海报都贴一下?

    回复
    1. 野龙

      回复 @四了个夕: 我是本组的海报制作。关于海报这一点,我们的习惯是,先行版用官方海报,BDRip用蓝光菜单图。只不过,由于官方海报通常不会留出足够的空间来放staff,我一般会对海报做一点小的魔改,例如挪动一下logo位置,遮挡部分背景之类的。

      (说来,第三章先行版海报我是用的官网的透明图来制作,所以才会是那个效果,不过如果是用官推给出的海报图,估计staff名单连一半都放不下233)

      回复
    2. 四了个夕

      回复 @野龙: 居然回复了!其实这只是我个人的一点看法啦没想到字幕组回复了,除了感谢真的是无以言表!!!

      回复
  3. 沢田纲吉

    辛苦你们了!!
    虽然有几段时间没有看到字幕,已经很好了
    期待完整版的第四章!!

    回复
  4. 驯兽师

    是不是赶得比较紧,字幕有几句缺失,不过很好了,比爱奇艺的翻译好多了,一直等着你们的版本,爱奇艺的出来了我都不愿意看

    回复
    1. Hanada

      回复 @我很帅: 已收到,感谢反馈,已经发现了。主要是合并字幕时出了点小差错。bdrip版会校正(说起来第3章的都还没出😂)

      回复
插入表情
Scroll Up